<?xml version="1.0" encoding="UTF-8" standalone="no"?>
<!-- Generator: MakeMusic 25.5.0.290 -->

<svg
   xmlns:dc="http://purl.org/dc/elements/1.1/"
   xmlns:cc="http://creativecommons.org/ns#"
   xmlns:rdf="http://www.w3.org/1999/02/22-rdf-syntax-ns#"
   xmlns:svg="http://www.w3.org/2000/svg"
   xmlns="http://www.w3.org/2000/svg"
   xmlns:sodipodi="http://sodipodi.sourceforge.net/DTD/sodipodi-0.dtd"
   xmlns:inkscape="http://www.inkscape.org/namespaces/inkscape"
   version="1.1"
   x="31"
   y="96"
   width="730"
   height="107"
   viewBox="31 96 730 107"
   enable-background="new 31 96 730 107"
   xml:space="preserve"
   style="position:absolute; top:0; left:0;"
   id="svg351"
   sodipodi:docname="appoggiatura-short-rhythmic-identity.svg"
   inkscape:version="0.92.4 (5da689c313, 2019-01-14)"><metadata
   id="metadata357"><rdf:RDF><cc:Work
       rdf:about=""><dc:format>image/svg+xml</dc:format><dc:type
         rdf:resource="http://purl.org/dc/dcmitype/StillImage" /><dc:title></dc:title></cc:Work></rdf:RDF></metadata><defs
   id="defs355" /><sodipodi:namedview
   pagecolor="#ffffff"
   bordercolor="#666666"
   borderopacity="1"
   objecttolerance="10"
   gridtolerance="10"
   guidetolerance="10"
   inkscape:pageopacity="0"
   inkscape:pageshadow="2"
   inkscape:window-width="1920"
   inkscape:window-height="1017"
   id="namedview353"
   showgrid="false"
   inkscape:zoom="1.2166111"
   inkscape:cx="272.74029"
   inkscape:cy="25.111914"
   inkscape:window-x="-8"
   inkscape:window-y="-8"
   inkscape:window-maximized="1"
   inkscape:current-layer="svg351" />
<font
   horiz-adv-x="1024"
   id="font52">
<!-- FontForge 2.0 : Nepomuk Regular : 3-9-2014 -->
<font-face
   font-family="'Nepomuk'"
   units-per-em="1024"
   underline-position="-184.000000"
   underline-thickness="72.000000"
   id="font-face2">
<font-face-src><font-face-name
     name="Nepomuk Regular" /></font-face-src></font-face>
<missing-glyph
   horiz-adv-x="37"
   id="missing-glyph4" />
<glyph
   unicode=" "
   horiz-adv-x="270.000"
   id="glyph6" />
<glyph
   unicode="("
   horiz-adv-x="317.000"
   d="M84,95C68,148 60,203 60,260C60,317 68,372 84,426C100,479 121,527 148,568C175,609 202,645 229,675C256,705 285,732 314,755L337,731C216,615 156,458 156,260C156,62 216,-95 337,-211L314,-235C285,-212 256,-185 229,-155C202,-125 175,-89 148,-48C121,-7 100,41 84,95z"
   id="glyph8" />
<glyph
   unicode=")"
   horiz-adv-x="317.000"
   d="M233,431C249,377 257,322 257,265C257,208 249,153 233,100C217,46 196,-2 169,-43C142,-84 115,-120 88,-150C61,-180 32,-207 3,-230L-20,-206C101,-90 161,67 161,265C161,463 101,620 -20,736L3,760C32,737 61,710 88,680C115,650 142,614 169,573C196,532 217,484 233,431z"
   id="glyph10" />
<glyph
   unicode="-"
   horiz-adv-x="456.000"
   d="M80,289L376,289L376,214L80,214z"
   id="glyph12" />
<glyph
   unicode="0"
   horiz-adv-x="587.000"
   d="M50,342C50,441 73,524 119,591C164,658 223,692 294,692C365,692 424,658 469,591C514,524 537,441 537,342C537,243 514,159 469,91C423,22 365,-12 294,-12C223,-12 165,22 119,91C73,159 50,243 50,342M294,663C209,663 166,564 166,367L166,312C166,115 209,17 294,17C379,17 421,115 421,312L421,367C421,564 379,663 294,663z"
   id="glyph14" />
<glyph
   unicode="1"
   horiz-adv-x="450.000"
   d="M218,680L300,680L300,85C300,68 304,55 312,47C320,39 333,35 350,35L400,35L400,0L105,0L105,35L155,35C172,35 185,39 193,47C201,55 205,68 205,85L205,533C205,541 202,546 196,549C190,552 183,549 176,540L77,428L50,450z"
   id="glyph16" />
<glyph
   unicode="3"
   horiz-adv-x="583.000"
   d="M344,364C396,355 439,333 473,300C506,266 523,227 523,184C523,130 502,84 460,46C418,7 356,-12 275,-12C214,-12 162,5 117,40C72,75 50,114 50,159C50,192 59,217 77,234C94,251 114,260 137,260C159,260 178,252 193,237C208,222 215,203 215,182C215,163 210,146 199,133C188,119 173,110 155,107C141,104 133,99 130,90C127,81 130,74 139,68C175,39 216,24 261,24C309,24 345,39 370,69C394,99 406,140 406,192C406,299 342,353 215,353L215,382C282,382 328,394 353,419C378,444 391,477 391,520C391,564 382,598 365,623C348,647 317,659 272,659C233,659 198,646 169,621C160,612 156,604 159,599C161,593 166,589 175,587C192,584 205,575 216,562C227,549 232,534 232,517C232,497 225,480 212,467C198,454 181,447 161,447C140,447 122,454 108,468C94,482 87,501 87,525C87,569 107,608 148,642C188,675 234,692 285,692C344,692 393,677 434,646C474,615 494,576 494,527C494,488 480,455 452,426C423,397 387,380 344,373z"
   id="glyph18" />
<glyph
   unicode="5"
   horiz-adv-x="565.000"
   d="M148,51C176,32 210,22 251,22C343,22 389,85 389,212C389,275 380,320 361,349C342,378 306,392 252,392C213,392 171,376 124,344C119,341 115,339 114,338C112,337 111,338 110,341C109,343 108,347 108,354L108,685C164,674 213,668 256,665C298,662 332,661 357,664C382,667 409,672 439,679C448,681 454,681 457,680C459,678 458,673 455,664C442,630 419,605 386,590C353,574 316,567 275,568C234,569 190,572 143,578L143,391C190,414 236,426 283,426C340,426 391,407 437,369C482,330 505,278 505,212C505,150 483,97 438,54C393,10 333,-12 259,-12C200,-12 152,3 115,34C78,65 60,102 60,146C60,174 68,197 85,214C102,231 121,239 144,239C165,239 183,232 198,218C212,203 219,185 219,164C219,145 213,128 202,115C190,102 175,93 157,90C143,87 136,82 135,74C134,65 138,58 148,51z"
   id="glyph20" />
<glyph
   unicode="6"
   horiz-adv-x="581.000"
   d="M326,660C274,660 234,634 207,583C179,532 165,473 165,406L165,347C180,368 202,387 230,403C257,418 288,426 322,426C375,426 421,408 461,371C501,334 521,283 521,219C521,152 499,96 456,53C413,10 363,-12 306,-12C231,-12 171,20 127,84C82,148 60,232 60,336C60,434 86,518 137,588C188,657 251,692 326,692C372,692 410,681 441,658C471,635 486,608 486,575C486,555 479,538 466,525C453,511 436,504 415,504C394,504 377,511 364,524C351,537 344,554 344,575C344,589 347,601 354,612C373,644 363,660 326,660M304,391C275,391 245,378 213,353C181,328 165,295 165,255L165,206C165,160 178,118 204,79C229,40 262,20 303,20C340,20 367,37 385,72C403,107 412,154 412,215C412,271 402,314 383,345C363,376 337,391 304,391z"
   id="glyph22" />
<glyph
   unicode="7"
   horiz-adv-x="519.000"
   d="M390,523C377,517 361,514 342,514C321,514 292,526 253,549C214,572 182,584 159,584C136,584 118,574 107,555C96,535 88,504 85,462L50,462L50,692L85,692L85,654C85,628 94,625 113,646C133,669 158,680 188,680C215,680 247,670 285,649C323,628 354,618 378,618C401,618 418,624 429,636C440,647 448,666 453,692L489,692C489,636 482,582 469,531C456,479 440,433 421,392C402,351 383,311 364,272C345,233 328,190 315,143C302,96 295,48 295,-1L141,-1C150,37 163,75 180,112C197,149 217,183 239,214C260,245 282,275 304,305C325,335 347,368 369,403C390,438 407,473 420,507C424,518 423,524 418,527C413,530 403,528 390,523z"
   id="glyph24" />
<glyph
   unicode="8"
   horiz-adv-x="584.000"
   d="M168,572C168,557 172,543 179,530C186,516 193,505 200,496C207,487 221,477 240,464C259,451 272,442 281,437C290,432 307,422 332,408C340,403 346,400 350,398C401,429 426,474 426,533C426,614 381,655 290,655C254,655 225,647 202,631C179,615 168,595 168,572M443,131C443,143 441,155 438,166C434,177 430,186 426,195C422,203 415,212 405,221C394,230 386,238 380,243C374,248 363,256 348,265C333,274 322,281 316,284C310,287 298,294 279,304C260,313 249,319 244,322C168,286 130,234 130,166C130,127 142,93 167,66C192,39 233,25 290,25C340,25 378,35 404,55C430,75 443,100 443,131M210,341C169,365 137,391 114,418C91,445 79,479 79,518C79,563 100,603 143,639C185,674 234,692 290,692C350,692 400,677 441,647C482,617 502,579 502,533C502,472 462,421 383,380C430,352 467,323 494,293C521,262 534,226 534,183C534,131 510,86 461,47C412,8 355,-12 290,-12C221,-12 164,5 119,40C73,75 50,115 50,161C50,234 103,294 210,341z"
   id="glyph26" />
<glyph
   unicode="D"
   horiz-adv-x="655.000"
   d="M38,680L309,680C361,680 407,671 448,653C488,634 520,609 545,577C569,545 587,509 600,469C612,429 618,386 618,340C618,294 612,251 600,211C587,171 569,135 545,103C520,71 488,46 448,28C407,9 361,0 309,0L38,0L38,35L78,35C101,35 115,38 120,43C125,48 128,62 128,85L128,595C128,618 125,632 120,637C115,642 101,645 78,645L38,645M299,36C370,36 421,60 454,107C487,154 503,231 503,340C503,449 487,527 454,574C421,621 370,644 299,644L292,644C277,644 262,641 247,635C231,628 223,618 223,604L223,76C223,62 231,52 246,46C261,39 277,36 292,36z"
   id="glyph28" />
<glyph
   unicode="S"
   horiz-adv-x="618.000"
   d="M173,90C214,48 261,27 315,27C369,27 410,39 437,64C464,88 477,115 477,146C477,217 428,269 330,302L238,333C119,374 60,434 60,511C60,560 80,603 121,639C162,674 215,692 281,692C324,692 365,681 404,660C425,649 440,644 450,647C460,649 470,659 480,677L488,692L523,692L523,446L483,446C476,487 466,522 451,551C436,580 418,602 398,617C378,631 359,641 340,647C321,653 301,656 281,656C244,656 213,648 189,631C165,614 153,593 153,568C153,512 194,470 275,441L348,416C415,393 468,363 506,328C543,293 562,246 562,189C562,132 539,84 494,46C449,7 391,-12 320,-12C269,-12 221,2 174,29C153,40 139,44 130,41C121,37 111,24 100,3L92,-12L57,-12L57,287L97,287C106,198 132,132 173,90z"
   id="glyph30" />
<glyph
   unicode="a"
   horiz-adv-x="547.000"
   d="M429,316L429,124C429,91 432,67 438,54C443,41 452,34 465,34C488,34 504,55 514,98L538,92C533,61 521,36 502,17C483,-2 461,-12 437,-12C388,-12 357,14 345,66C308,14 256,-12 188,-12C150,-12 119,-1 94,22C69,45 57,73 57,107C57,152 74,187 109,211C144,235 192,255 255,270L339,290L339,301C339,388 309,431 249,431C192,431 164,419 164,394C164,390 167,383 174,372C181,361 184,352 184,343C184,330 180,319 171,310C162,301 151,296 138,296C120,296 106,302 97,314C88,325 83,340 83,357C83,383 98,407 128,429C157,451 200,462 257,462C310,462 352,448 383,421C414,394 429,359 429,316M158,118C158,86 163,62 174,47C184,32 201,24 224,24C248,24 273,36 300,60C326,83 339,107 339,132L339,261L273,245C228,234 198,219 182,200C166,181 158,153 158,118z"
   id="glyph32" />
<glyph
   unicode="c"
   horiz-adv-x="463.000"
   d="M412,333C412,315 407,299 396,286C385,273 371,266 354,266C337,266 323,272 312,284C300,295 294,309 294,326C294,341 300,356 312,369C324,382 330,390 330,394C330,404 324,413 312,421C299,429 282,433 260,433C191,433 156,364 156,225C156,156 167,105 189,73C211,40 238,24 270,24C315,24 354,57 386,122L416,114C381,30 327,-12 254,-12C193,-12 144,11 106,57C67,102 48,158 48,225C48,292 67,348 106,394C145,439 195,462 256,462C302,462 340,449 369,422C398,395 412,366 412,333z"
   id="glyph34" />
<glyph
   unicode="e"
   horiz-adv-x="499.000"
   d="M156,237L156,224C156,154 167,103 188,72C209,41 237,25 272,25C299,25 327,36 354,57C381,78 400,107 412,144L444,133C430,90 406,55 371,28C336,1 299,-12 260,-12C196,-12 145,11 106,57C67,102 48,158 48,225C48,292 68,348 107,394C146,439 197,462 260,462C321,462 367,441 400,399C432,356 448,307 448,251L448,237M344,312C344,347 336,376 321,400C305,424 285,436 260,436C198,436 163,380 156,267L296,267C313,267 326,270 333,276C340,282 344,294 344,312z"
   id="glyph36" />
<glyph
   unicode="i"
   horiz-adv-x="325.000"
   d="M268,35L298,35L298,0L48,0L48,35L78,35C98,35 111,38 118,45C125,52 128,65 128,85L128,365C128,388 125,402 120,407C115,412 101,415 78,415L48,415L48,450L218,450L218,85C218,62 221,48 226,43C231,38 245,35 268,35M121,575C110,586 104,600 104,616C104,632 110,646 121,657C132,668 146,674 162,674C178,674 192,668 203,657C214,646 220,632 220,616C220,600 214,586 203,575C192,564 178,558 162,558C146,558 132,564 121,575z"
   id="glyph38" />
<glyph
   unicode="l"
   horiz-adv-x="316.000"
   d="M258,35L288,35L288,0L38,0L38,35L68,35C91,35 105,38 110,43C115,48 118,62 118,85L118,595C118,618 115,632 110,637C105,642 91,645 68,645L38,645L38,680L208,680L208,85C208,62 211,48 216,43C221,38 235,35 258,35z"
   id="glyph40" />
<glyph
   unicode="m"
   horiz-adv-x="843.000"
   d="M480,349C491,382 509,410 533,431C557,452 586,462 621,462C666,462 700,445 722,412C744,379 755,334 755,279L755,85C755,62 758,48 763,43C768,38 782,35 805,35L815,35L815,0L605,0L605,35L615,35C638,35 652,38 657,43C662,48 665,62 665,85L665,275C665,327 659,364 647,386C635,407 617,418 592,418C557,418 530,397 510,356C489,315 479,275 479,236L479,85C479,62 482,48 487,43C492,38 506,35 529,35L539,35L539,0L329,0L329,35L339,35C362,35 376,38 381,43C386,48 389,62 389,85L389,275C389,327 383,364 371,386C359,407 341,418 316,418C281,418 254,397 234,356C213,315 203,275 203,236L203,85C203,62 206,48 211,43C216,38 230,35 253,35L263,35L263,0L48,0L48,35L68,35C88,35 101,38 108,45C115,52 118,65 118,85L118,365C118,388 115,402 110,407C105,412 91,415 68,415L38,415L38,450L198,450L198,360L207,360C237,428 283,462 345,462C380,462 408,452 429,432C450,411 464,384 471,349z"
   id="glyph42" />
<glyph
   unicode="n"
   horiz-adv-x="577.000"
   d="M208,358C239,427 287,462 350,462C395,462 430,445 454,412C477,378 489,334 489,279L489,85C489,62 492,48 497,43C502,38 516,35 539,35L549,35L549,0L339,0L339,35L349,35C372,35 386,38 391,43C396,48 399,62 399,85L399,275C399,370 373,418 321,418C297,418 276,407 257,384C238,361 224,337 216,310C207,283 203,258 203,236L203,85C203,62 206,48 211,43C216,38 230,35 253,35L263,35L263,0L48,0L48,35L68,35C88,35 101,38 108,45C115,52 118,65 118,85L118,365C118,388 115,402 110,407C105,412 91,415 68,415L38,415L38,450L198,450L198,358z"
   id="glyph44" />
<glyph
   unicode="o"
   horiz-adv-x="518.000"
   d="M260,436C191,436 156,366 156,225C156,84 191,14 260,14C329,14 364,84 364,225C364,366 329,436 260,436M107,57C68,102 48,158 48,225C48,292 68,348 107,394C146,439 197,462 260,462C323,462 375,439 414,394C453,348 472,292 472,225C472,158 453,102 414,57C375,11 323,-12 260,-12C197,-12 146,11 107,57z"
   id="glyph46" />
<glyph
   unicode="r"
   horiz-adv-x="416.000"
   d="M209,359C224,390 241,415 261,434C281,453 302,462 325,462C344,462 361,456 376,443C391,430 398,413 398,394C398,377 393,362 383,350C372,338 359,332 342,332C317,332 297,343 283,366C270,387 256,387 240,366C215,333 203,298 203,259L203,85C203,62 206,48 211,43C216,38 230,35 253,35L303,35L303,0L38,0L38,35L68,35C91,35 105,38 110,43C115,48 118,62 118,85L118,365C118,388 115,402 110,407C105,412 91,415 68,415L38,415L38,450L198,450L198,359z"
   id="glyph48" />
<glyph
   unicode="t"
   horiz-adv-x="369.000"
   d="M191,450L302,450L302,415L191,415L191,139C191,98 195,71 203,58C210,45 221,38 235,38C255,38 271,50 284,74C296,98 302,134 302,183L302,203L332,203L332,182C332,118 321,70 300,37C279,4 249,-12 210,-12C141,-12 106,34 106,125L106,415L24,415L24,438C94,491 141,567 165,666L191,666z"
   id="glyph50" />
</font>
<font
   horiz-adv-x="1024"
   id="font72">
<!-- FontForge 2.0 : Nepomuk Regular : 3-9-2014 -->
<font-face
   font-family="'Nepomuk'"
   font-weight="bold"
   units-per-em="1024"
   underline-position="-184.000000"
   underline-thickness="72.000000"
   id="font-face54">
<font-face-src><font-face-name
     name="Nepomuk Regular" /></font-face-src></font-face>
<missing-glyph
   horiz-adv-x="38"
   id="missing-glyph56" />
<glyph
   unicode="A"
   horiz-adv-x="683.000"
   d="M256,54L256,0L-10,0L-10,54L32,54C56,54 71,57 80,62C88,67 98,84 110,114L337,698L387,698L595,117C606,86 615,68 622,62C628,57 643,54 665,54L699,54L699,0L396,0L396,54L438,54C460,54 474,57 479,63C484,68 482,86 473,114L438,212L210,212L169,105C164,91 160,81 160,74C159,68 160,63 163,61C166,58 170,56 176,55C182,55 192,54 207,54M227,267L424,267L330,545z"
   id="glyph58" />
<glyph
   unicode="e"
   horiz-adv-x="500.000"
   d="M174,232L174,230C174,163 184,115 203,87C222,59 247,45 277,45C301,45 326,54 351,73C375,93 394,122 408,161L456,147C442,96 416,57 380,30C344,2 306,-12 265,-12C199,-12 146,12 107,59C67,105 47,163 47,231C47,298 67,356 107,403C147,450 200,473 265,473C328,473 376,451 410,407C443,363 460,313 460,256L460,232M337,316C337,348 330,375 317,396C303,417 286,427 265,427C211,427 181,379 174,282L301,282C315,282 325,284 330,288C335,292 337,301 337,316z"
   id="glyph60" />
<glyph
   unicode="g"
   horiz-adv-x="558.000"
   d="M55,308C55,354 73,393 110,425C147,457 192,473 244,473C305,473 350,454 382,415C409,462 441,485 479,485C506,485 528,476 544,459C560,442 568,421 568,395C568,378 563,362 552,348C541,334 526,327 509,327C492,327 479,333 469,343C458,353 453,366 453,383C453,388 454,394 455,400C456,405 457,410 457,413C457,415 456,416 454,416C441,416 427,404 411,381C426,360 433,335 433,308C433,261 414,222 378,190C341,158 296,142 244,142C224,142 205,145 187,150C164,142 148,134 139,126C130,118 125,108 125,95C125,70 165,57 244,57L297,57C321,57 343,56 364,52C385,49 408,43 431,34C455,25 473,11 488,-9C502,-28 509,-52 509,-79C509,-130 485,-171 438,-204C390,-236 332,-252 263,-252C239,-252 214,-250 189,-245C164,-240 139,-233 114,-223C89,-213 68,-199 52,-180C36,-161 27,-139 27,-114C27,-68 58,-36 118,-19C63,-6 35,24 35,69C35,95 46,119 66,139C87,160 109,174 133,180C81,206 55,249 55,308M170,308C170,228 195,188 244,188C292,188 316,228 316,308C316,388 292,427 244,427C195,427 170,388 170,308M178,-39C133,-53 111,-77 111,-112C111,-141 124,-164 151,-179C177,-194 214,-202 263,-202C307,-202 341,-194 368,-178C395,-163 408,-141 408,-112C408,-91 398,-75 378,-63C358,-50 331,-44 299,-44L246,-44C222,-44 199,-42 178,-39z"
   id="glyph62" />
<glyph
   unicode="l"
   horiz-adv-x="317.000"
   d="M263,54L303,54L303,0L37,0L37,54L77,54C96,54 108,56 111,59C114,62 116,74 116,93L116,593C116,613 114,624 111,627C107,631 96,632 77,632L37,632L37,687L225,687L225,93C225,74 227,62 230,59C233,56 244,54 263,54z"
   id="glyph64" />
<glyph
   unicode="o"
   horiz-adv-x="519.000"
   d="M265,427C204,427 174,362 174,231C174,99 204,34 265,34C326,34 357,99 357,231C357,362 326,427 265,427M107,59C67,105 47,163 47,231C47,298 67,356 107,403C147,450 200,473 265,473C331,473 383,449 424,402C464,355 484,298 484,231C484,163 464,106 424,59C384,12 331,-12 265,-12C200,-12 147,12 107,59z"
   id="glyph66" />
<glyph
   unicode="r"
   horiz-adv-x="417.000"
   d="M209,372C222,399 239,423 260,443C281,463 304,473 329,473C351,473 370,466 386,451C403,436 411,418 411,396C411,377 405,360 393,346C381,332 365,326 346,326C317,326 295,338 279,364C272,381 264,381 256,365C232,333 220,300 220,264L220,93C220,74 222,62 225,59C228,56 239,54 259,54L318,54L318,0L37,0L37,54L77,54C96,54 108,56 111,59C114,62 116,74 116,93L116,368C116,387 114,399 111,402C107,405 96,407 77,407L37,407L37,461L215,461L215,372z"
   id="glyph68" />
<glyph
   unicode="t"
   horiz-adv-x="370.000"
   d="M208,461L317,461L317,407L208,407L208,146C208,108 211,84 217,73C223,63 231,57 241,57C256,57 269,68 280,89C291,110 296,143 296,189L296,219L347,219L347,188C347,124 335,74 313,40C290,5 258,-12 216,-12C141,-12 104,36 104,133L104,407L24,407L24,444C93,496 140,573 164,673L208,673z"
   id="glyph70" />
</font>
<font
   horiz-adv-x="1000"
   id="font92">
<!-- FontForge 2.0 : November2 : 9-12-2016 -->
<font-face
   font-family="'November2'"
   units-per-em="1000"
   underline-position="-86.000000"
   underline-thickness="9.000000"
   id="font-face74">
<font-face-src><font-face-name
     name="November2" /></font-face-src></font-face>
<missing-glyph
   horiz-adv-x="0"
   id="missing-glyph76" />
<glyph
   unicode="&amp;"
   horiz-adv-x="682.000"
   d="M488,125C559,125 598,33 598,-38C598,-51 596,-63 594,-74C590,-88 578,-123 546,-152C542,-156 538,-157 534,-157C526,-157 518,-150 516,-141C500,-80 458,63 450,96C449,100 449,103 449,106C449,124 464,125 488,125M448,944C463,901 471,859 471,825C471,802 467,782 460,768C439,731 377,636 332,603C330,602 328,602 326,602C322,602 317,604 316,609C310,636 302,672 302,698C302,701 302,703 302,705C302,820 324,882 363,933C386,964 416,984 427,984C431,984 440,964 448,944M682,9C682,174 585,274 431,280C429,280 427,280 426,280C424,280 422,280 420,280C410,280 403,281 398,293C389,313 377,360 370,388C368,394 368,399 368,405C368,422 374,439 387,452C432,498 536,593 536,744C536,811 515,900 487,973C458,1046 420,1103 387,1103C348,1103 302,1031 269,953C243,891 225,825 225,788C225,704 241,631 265,553C266,551 266,549 266,547C266,542 263,537 260,533C192,463 120,389 68,307C27,241 -0,171 -0,93C-0,50 8,5 28,-43C86,-190 229,-265 375,-265C406,-265 437,-262 467,-255C471,-254 475,-253 477,-253C484,-253 486,-257 488,-264C506,-320 515,-368 515,-408C515,-484 485,-533 434,-553C425,-557 392,-567 366,-567C349,-567 335,-562 335,-547C335,-525 400,-523 400,-441C400,-368 350,-337 287,-337C253,-337 232,-347 213,-368C187,-395 173,-435 173,-469C173,-507 199,-548 232,-575C265,-603 315,-615 368,-615C438,-615 493,-588 527,-537C551,-501 565,-453 565,-393C565,-370 563,-348 560,-326C556,-298 551,-270 544,-241C543,-238 543,-236 543,-234C543,-227 546,-223 555,-216C624,-159 682,-84 682,9M277,-13C277,50 316,117 379,117C390,117 401,107 405,98C410,88 468,-170 468,-178C468,-213 411,-222 386,-222C268,-221 156,-162 112,-7C105,17 102,40 102,62C102,158 160,240 223,300C242,319 284,356 312,356C314,356 316,355 318,355C326,353 329,348 337,322C341,307 343,296 343,287C343,273 338,265 331,261C246,204 192,138 192,34C192,-39 230,-131 358,-159C363,-160 367,-161 371,-161C383,-161 391,-156 391,-151C391,-146 384,-141 370,-139C346,-136 277,-108 277,-13z"
   id="glyph78" />
<glyph
   unicode="."
   horiz-adv-x="82.000"
   d="M41,0C63,0 82,18 82,41C82,57 70,76 51,80C48,80 45,80 42,80C19,80 2,65 0,41C0,40 0,40 0,39C0,22 16,2 38,0C39,0 40,0 41,0z"
   id="glyph80" />
<glyph
   unicode="3"
   horiz-adv-x="369.000"
   d="M335,63C345,76 352,91 356,106C358,113 358,120 358,127C358,143 355,158 347,168C303,231 249,251 181,251C170,251 158,250 146,249C89,244 22,222 8,157C6,149 4,141 4,133C4,129 5,124 6,120C11,100 21,79 39,68C51,61 66,57 80,57C111,57 142,74 154,103C156,110 160,118 159,126C158,143 141,154 129,165C120,173 115,181 115,188C115,200 130,208 151,209C154,209 156,209 159,209C208,209 243,167 243,118C243,103 241,92 235,80C217,45 173,22 138,18C126,16 110,8 110,2C110,-0 112,-2 115,-4C130,-11 146,-15 159,-19C202,-32 226,-45 233,-93C234,-99 234,-106 234,-113C234,-153 219,-201 182,-206C177,-207 171,-207 165,-207C150,-207 133,-203 123,-188C118,-180 122,-170 125,-163C134,-146 138,-131 138,-117C138,-77 104,-51 69,-51C45,-51 20,-63 5,-91C1,-100 -0,-112 -0,-125C-0,-131 0,-138 0,-144C2,-223 98,-248 179,-248C199,-248 218,-247 234,-244C264,-238 299,-223 322,-203C350,-177 369,-136 369,-97C369,-71 361,-47 343,-27C335,-18 297,-1 297,11C297,24 327,52 335,63z"
   id="glyph82" />
<glyph
   unicode="8"
   horiz-adv-x="353.000"
   d="M184,-249C262,-241 339,-203 351,-113C352,-104 353,-94 353,-85C353,-71 352,-58 348,-45C345,-31 335,-16 327,-5C318,9 310,22 308,34C308,36 308,37 308,39C308,52 314,63 321,74C328,85 337,97 339,110C340,115 340,120 340,125C340,141 336,156 329,169C298,232 238,250 177,250C159,250 140,248 123,246C64,238 0,169 0,100C0,92 1,84 3,76C7,59 17,41 25,26C34,10 43,-6 43,-17C43,-44 12,-70 5,-97C3,-107 2,-117 2,-127C2,-209 87,-250 163,-250C170,-250 177,-250 184,-249M139,220C149,221 159,222 169,222C229,222 294,199 294,129C294,85 285,73 249,65C241,63 232,63 224,63C181,63 138,82 105,101C91,109 79,122 73,137C70,144 69,151 69,158C69,193 108,216 139,220M108,-39C165,-40 270,-77 270,-148C270,-168 261,-183 246,-195C225,-213 196,-221 167,-221C134,-221 102,-211 79,-193C56,-175 41,-144 41,-115C41,-93 50,-71 69,-56C80,-47 93,-39 108,-39z"
   id="glyph84" />
<glyph
   unicode="b"
   horiz-adv-x="183.000"
   d="M88,126C117,126 129,92 129,67C129,16 70,-100 40,-100C31,-100 30,-87 30,-67C30,-58 30,-47 30,-36C30,-33 30,-31 30,-28C30,19 32,126 88,126M8,-171C70,-123 183,-27 183,62C183,67 183,72 182,77C176,115 144,152 102,152C80,152 60,133 45,132C29,132 28,155 28,172C28,174 28,176 28,178L28,320C28,351 31,400 31,419C31,422 31,424 31,425C30,437 19,443 10,443C5,443 0,441 0,436L0,-164C0,-171 2,-175 8,-171z"
   id="glyph86" />
<glyph
   unicode="j"
   horiz-adv-x="283.000"
   d="M144,25C110,62 73,101 50,147C34,178 21,221 17,280C16,286 14,290 10,292C8,294 5,294 3,295C2,295 1,295 1,294C0,294 -0,293 0,292L0,0L19,0C19,19 31,24 44,24C50,24 55,23 59,22C82,14 109,-2 131,-19C156,-38 176,-56 198,-84C217,-108 225,-131 236,-154C255,-197 264,-250 264,-299C264,-302 264,-305 264,-308C264,-358 256,-407 236,-453C218,-495 205,-514 196,-523C195,-531 199,-529 206,-530C228,-497 255,-449 266,-407C275,-373 282,-339 283,-302C283,-298 283,-294 283,-290C283,-262 279,-236 275,-210C268,-170 256,-138 240,-105C231,-84 219,-65 205,-46C184,-19 165,2 144,25z"
   id="glyph88" />
<glyph
   unicode="Ï"
   horiz-adv-x="324.000"
   d="M46,63C21,40 0,2 0,-31C0,-46 3,-61 9,-74C23,-105 70,-130 112,-130C179,-130 233,-106 275,-70C319,-31 324,17 324,33C324,46 320,64 315,73C297,106 260,129 215,129C154,129 91,103 46,63z"
   id="glyph90" />
</font>
</defs>
</svg>
